potplayer播放mkv没声音

1#    dlmujiaqi    
2017-12-26 17:50
下的好多电影电视剧没字幕或者没声音,Free板块下的一个《寂寞之鸽》没有声音,用的是potplayer,mkv格式,试了F5初始化,不好使,看过去有人说应该用音频软解,这个在哪,我没找到,有没有有经验的同学,指导一下
2#    Topologies    
2017-12-30 12:45
可能是音频解码器冲突了,可能是安装多个播放器的缘故吧。你试着重新设置一下解码器选项。
3#    dlmujiaqi    
2017-12-30 16:33
Topologies 发表于 2017-12-30 12:45
可能是音频解码器冲突了,可能是安装多个播放器的缘故吧。你试着重新设置一下解码器选项。

播放信息:
[滤镜使用列表]
(1) Built-in MKV Source
(2) Built-in Video Codec/Transform
(3) Enhanced Video Renderer(Custom Present)
(4) Built-in AVI<->AC3/DTS
(5) Microsoft DTV-DVD Audio Decoder
(6) Built-in Audio Codec/Transform
(7) DirectSound Audio Renderer


[视频信息]
视频编码: HVC1 - 内置 FFmpeg 解码器(hevc, Thread Frame)
输入格式: HVC1(24 bits)
输入尺寸: 1920 x 1080(1.78:1)
输出格式: YV12(12 bits)
输出尺寸: 1920 x 1080(1.78:1)
帧率:23.98
BitRate: 未知


[音频信息]
音频编码: Dolby AC3(0x2000)
采样率: 48000 -> 48000 Hz
位率: 32 -> 16 位
声道数: 6 -> 2 声道
Bitrate: 9216 kbps


文件信息:
General
Unique ID    : 211100161147716264063762894489331245391 (0x9ED0698371D2CB01BA6298C4884D214F)
Complete name   : E:\六维资源下载\寂寞之鸽E01-E04.Lonesome.Dove.1989.1080p.Blu-ray.x265.AC3£cXcY@FRDS\Lonesome.Dove.E01.1989.1080p.Blu-ray.x265.AC3£cXcY@FRDS.mkv
Format    : Matroska
Format version  : Version 4 / Version 2
File size    : 2.17 GiB
Duration  : 1 h 34 min
Overall bit rate   : 3 284 kb/s
Movie name   : cXcY@FRDS
Encoded date    : UTC 2017-10-02 04:19:21
Writing application   : mkvmerge v7.9.0 ('Birds') 32bit
Writing library    : libebml v1.3.1 + libmatroska v1.4.2


Video
ID  : 1
Format    : HEVC
Format/Info  : High Efficiency Video Coding
Format profile  : Main@L5@High
Codec ID  : V_MPEGH/ISO/HEVC
Duration  : 1 h 34 min
Bit rate  : 2 771 kb/s
Width  : 1 920 pixels
Height    : 1 080 pixels
Display aspect ratio  : 16:9
Frame rate mode    : Constant
Frame rate   : 23.976 (24000/1001) FPS
Color space  : YUV
Chroma subsampling    : 4:2:0
Bit depth    : 8 bits
Bits/(Pixel*Frame)    : 0.056
Stream size  : 1.83 GiB (84%)
Default   : Yes
Forced    : No


Audio
ID  : 2
Format    : AC-3
Format/Info  : Audio Coding 3
Mode extension  : CM (complete main)
Format settings, Endianness    : Big
Codec ID  : A_AC3
Duration  : 1 h 34 min
Bit rate mode   : Constant
Bit rate  : 448 kb/s
Channel(s)   : 6 channels
Channel positions  : Front: L C R, Side: L R, LFE
Sampling rate   : 48.0 kHz
Frame rate   : 31.250 FPS (1536 spf)
Bit depth    : 16 bits
Compression mode   : Lossy
Stream size  : 303 MiB (14%)
Title  : Eng-DD5.1£cXcY
Language  : Chinese
Default   : Yes
Forced    : No


Text #1
ID  : 3
Format    : ASS
Codec ID  : S_TEXT/ASS
Codec ID/Info   : Advanced Sub Station Alpha
Compression mode   : Lossless
Title  : 中上英下-TLF_ASS£cXcY
Language  : Chinese
Default   : Yes
Forced    : No


Text #2
ID  : 4
Format    : UTF-8
Codec ID  : S_TEXT/UTF8
Codec ID/Info   : UTF-8 Plain Text
Title  : 简体中文-TLF_SRT£cXcY
Language  : Chinese
Default   : No
Forced    : No


谢谢你,但我不明白该怎么设置,你能说的具体一点吗?
4#    Topologies    
2017-12-30 18:22
dlmujiaqi 发表于 2017-12-30 16:33
播放信息:
[滤镜使用列表]
(1) Built-in MKV Source

路径:D:\Programs\PerectPlayer\Pure Codec
执行程序:PureSet.exe
点开,左下角初始化(重置),自动配置下就好啦~
5#    dlmujiaqi    
2017-12-31 09:10
Topologies 发表于 2017-12-30 18:22
路径:D:\Programs\PerectPlayer\Pure Codec
执行程序:PureSet.exe
点开,左下角初始化(重置),自动 ...

谢谢了,有动静了